Details for this torrent 

Type SE
Magnet link Uploaded Today 13.29, ULed by piratebay HIDE MY IP NOW
Maša ja karu Külas muinasjutul 2016 Eesti keeles
Type:
Video > Movie clips
Files:
1
Size:
3.29 GiB (3536394462 Bytes)
Uploaded:
2016-09-02 17:46:57 GMT
By:
immri
Seeders:
0
Leechers:
0
Comments
0  

Info Hash:
C74F0031A4C9130668E251FF3DF0BB41CBA016C2




(Problems with magnets links are fixed by upgrading your torrent client!)
Format : Matroska 
Format version : Version 2 
File size : 3.29 GiB 
Duration : 1h 5mn 
Overall bit rate mode : Variable 
Overall bit rate : 7 217 Kbps 
Encoded date : UTC 2016-09-02 14:51:07 
Writing application : MakeMKV v1.10.0 win(x64-release) 
Writing library : libmakemkv v1.10.0 (1.3.3/1.4.4) win(x64-release) 
Original source medium : DVD-Video 

Video 
ID : 1 
ID in the original source medium : 224 (0xE0) 
Format : MPEG Video 
Format version : Version 2 
Format profile : [email protected] 
Format settings, BVOP : Yes 
Format settings, Matrix : Default 
Format settings, GOP : M=3, N=12 
Format settings, picture structure : Frame 
Codec ID : V_MPEG2 
Codec ID/Info : MPEG 1 or 2 Video 
Duration : 1h 5mn 
Bit rate mode : Variable 
Bit rate : 7 020 Kbps 
Width : 720 pixels 
Height : 576 pixels 
Display aspect ratio : 16:9 
Frame rate mode : Constant 
Frame rate : 25.000 fps 
Standard : PAL 
Color space : YUV 
Chroma subsampling : 4:2:0 
Bit depth : 8 bits 
Scan type : Interlaced 
Scan order : Bottom Field First 
Compression mode : Lossy 
Bits/(Pixel*Frame) : 0.677 
Time code of first frame : 00:00:00:00 
Time code source : Group of pictures header 
GOP, Open/Closed : Closed 
Stream size : 3.20 GiB (97%) 
Default : No 
Forced : No 

Audio 
ID : 2 
ID in the original source medium : 189 (0xBD)-129 (0x81) 
Format : AC-3 
Format/Info : Audio Coding 3 
Mode extension : CM (complete main) 
Format settings, Endianness : Big 
Codec ID : A_AC3 
Duration : 1h 5mn 
Bit rate mode : Constant 
Bit rate : 192 Kbps 
Channel(s) : 2 channels 
Channel positions : Front: L R 
Sampling rate : 48.0 KHz 
Frame rate : 31.250 fps (1536 spf) 
Compression mode : Lossy 
Stream size : 89.7 MiB (3%) 
Title : Stereo 
Language : Estonian 
Default : Yes